(navigation image)
Home Audio Books & Poetry | Community Audio | Computers & Technology | Grateful Dead | Live Music Archive | Music, Arts & Culture | Netlabels | News & Public Affairs | Non-English Audio | Podcasts | Radio Programs | Spirituality & Religion | The Shady Trees | BRYAC Funk Allstars
Search: Advanced Search
Anonymous User (login or join us)
Upload

Listen to audio

item image
Run time: 181:50.24

Stream (help[help])

VBR M3U
MP3 via M3U

Play / Download (help[help])

VBR ZIP

Ogg Vorbis

Lossless zip


All Files: HTTPS Torrent (2/0)

Resources

Bookmark

FurthurFurthur Live at Verizon Wireless Arena on 2011-11-03 (November 3, 2011)

something has gone horribly wrong 8-p
Prefer flash? · Embed · Questions/Feedback?


Collection: Furthur
Band/Artist: Furthur
Date: November 3, 2011 (check for other copies)
Venue: Verizon Wireless Arena
Location: Manchester, NH

Source: Schoeps CCM4V'S(din)>Lunatec V2>Benchmark AD2K> Sound Devices 722 (24/48) OTS/BOB/DFC/KFC/ZFC/AARP OTS, 8' High
Lineage: Sound Devices 722>Sound Forge 9.0>CD Wave>flac(16)
Taped by: Z-Man
Transferred by: Z-Man
Keywords: Audience; Furthur; Phil Lesh; Z-Man; Schoeps; ccm4v


Description

Furthur
Verizon Wireless Arena
Manchester, New Hampshire
11/3/2011

Source: Schoeps CCM4V'S(din)>Lunatec V2>Benchmark AD2K>
Sound Devices 722 (24/48)
OTS/BOB/DFC/KFC/ZFC/AARP OTS, 8' High
DSP: Sound Devices 722>Sound Forge 9.0>CD Wave>flac(16)
Recorded By: Z-Man

Disc I: 1st Set:

01. Tuning
02. Playin' In The Band >
03. Cold Rain And Snow
04. Cassidy
05. Lazy River Road
06. Pride Of Cucamonga
07. Catfish John
08. Bertha >
09. Good Lovin'

Disc II: 2nd Set:

01. Tuning
02. Shakedown Street >
03. Jack Straw >
04. Bird Song >
05. Let It Grow >
06. The Wheel >
07. Supplication Jam >
08. Drum Solo >

Disc III: 2nd Set Con't:

01. King Solomon's Marbles
02. Black Peter >
03. Gimme Some Lovin' >
04. Uncle John's Band >
05. Playin' In The Band

Encore:
06. Phil Donor Rap
07. Ripple

Notes

Shntool:

length expanded size cdr WAVE problems fmt ratio filename
0:40.51 7175996 B --- -- ---xx flac 0.3616 furthur2011-11-03d01t01.flac
10:27.56 110734556 B --- -- ---xx flac 0.4045 furthur2011-11-03d01t02.flac
6:39.02 70388348 B --- -- ---xx flac 0.4288 furthur2011-11-03d01t03.flac
11:50.18 125286380 B --- -- ---xx flac 0.4239 furthur2011-11-03d01t04.flac
8:18.12 87875468 B --- -- ---xx flac 0.3968 furthur2011-11-03d01t05.flac
7:08.30 75569804 B --- -- ---xx flac 0.4289 furthur2011-11-03d01t06.flac
6:43.15 71124524 B --- -- ---xx flac 0.4181 furthur2011-11-03d01t07.flac
8:08.65 86236124 B --- -- ---xx flac 0.4573 furthur2011-11-03d01t08.flac
10:32.15 111520124 B --- -- ---xx flac 0.4410 furthur2011-11-03d01t09.flac
0:42.01 7411196 B --- -- ---xx flac 0.3376 furthur2011-11-03d02t01.flac
11:41.10 123679964 B --- -- ---xx flac 0.4743 furthur2011-11-03d02t02.flac
9:12.56 97504556 B --- -- ---xx flac 0.4527 furthur2011-11-03d02t03.flac
13:19.31 141016556 B --- -- ---xx flac 0.4073 furthur2011-11-03d02t04.flac
12:31.33 132554060 B --- -- ---xx flac 0.4436 furthur2011-11-03d02t05.flac
8:00.56 84803756 B --- -- ---xx flac 0.4343 furthur2011-11-03d02t06.flac
2:50.65 30140924 B --- -- ---xx flac 0.4239 furthur2011-11-03d02t07.flac
1:03.00 11113244 B --- -- ---xx flac 0.4284 furthur2011-11-03d02t08.flac
8:20.32 88275308 B --- -- ---xx flac 0.4411 furthur2011-11-03d03t01.flac
15:06.17 159858428 B --- -- ---xx flac 0.4070 furthur2011-11-03d03t02.flac
7:10.20 75899084 B --- -- ---xx flac 0.4648 furthur2011-11-03d03t03.flac
10:13.27 108196748 B --- -- ---xx flac 0.4455 furthur2011-11-03d03t04.flac
3:45.53 39814700 B --- -- ---xx flac 0.4248 furthur2011-11-03d03t05.flac
2:00.16 21205676 B --- -- ---xx flac 0.3593 furthur2011-11-03d03t06.flac
5:24.18 57195980 B --- -- ---xx flac 0.4004 furthur2011-11-03d03t07.flac
181:50.24 1924581504 B 0.4298 (24 files)

Individual Files

Audio Files Flac VBR MP3 Ogg Vorbis
Tuning 2.5 MB
1,011.6 KB
450.9 KB
Playin' In The Band > 42.7 MB
15.3 MB
6.6 MB
Cold Rain And Snow 28.8 MB
9.8 MB
4.2 MB
Cassidy 50.6 MB
17.4 MB
7.5 MB
Lazy River Road 33.3 MB
12.0 MB
5.2 MB
Pride of Cucamonga 30.9 MB
10.6 MB
4.6 MB
Catfish John 28.4 MB
9.9 MB
4.3 MB
Bertha > 37.6 MB
12.2 MB
5.3 MB
Good Lovin' 46.9 MB
15.7 MB
6.8 MB
Tuning 2.4 MB
1.0 MB
475.0 KB
Shakedown Street > 55.9 MB
17.2 MB
7.7 MB
Jack Straw > 42.1 MB
13.8 MB
6.0 MB
Bird Song > 54.8 MB
19.0 MB
8.5 MB
Let It Grow > 56.1 MB
18.4 MB
8.0 MB
The Wheel > 35.1 MB
11.8 MB
5.1 MB
Supplication Jam > 12.2 MB
4.1 MB
1.8 MB
Drum Solo > 4.5 MB
1.5 MB
731.0 KB
King Solomon's Marbles 37.1 MB
12.3 MB
5.4 MB
Black Peter > 62.1 MB
21.8 MB
9.5 MB
Gimme Some Lovin' > 33.6 MB
10.6 MB
4.6 MB
Uncle John's Band > 46.0 MB
15.1 MB
6.6 MB
Playin' In The Band 16.1 MB
5.5 MB
2.5 MB
Phil Donor Rap 7.3 MB
2.8 MB
1.3 MB
Ripple 21.8 MB
7.7 MB
3.5 MB
Information FormatSize
furthur2011-11-03.schoeps-ccm4v.zman.116916.flac16.ffp Flac FingerPrint 1.5 KB
furthur2011-11-03.schoeps-ccm4v.zman.116916.flac16.md5 Checksums 1.5 KB
furthur2011-11-03.schoeps-ccm4v.zman.116916.flac16_files.xml Metadata [file]
furthur2011-11-03.schoeps-ccm4v.zman.116916.flac16_meta.xml Metadata 6.4 KB
furthur2011-11-03.schoeps-ccm4v.zman.116916.flac16_reviews.xml Metadata 3.8 KB
Other Files Text Archive BitTorrent Derivation Rules
furthur2011-11-03.schoeps-ccm4v.zman.116916.flac16.txt 4.7 KB
furthur2011-11-03.schoeps-ccm4v.zman.116916.flac16_archive.torrent 38.1 KB
furthur2011-11-03.schoeps.ccm4v.zman.ots.flac16_rules.conf ??B

Write a review
Downloaded 4,968 times
Reviews
Average Rating: 4.60 out of 5 stars4.60 out of 5 stars4.60 out of 5 stars4.60 out of 5 stars4.60 out of 5 stars

Reviewer: beyond(~);}description - 5.00 out of 5 stars5.00 out of 5 stars5.00 out of 5 stars5.00 out of 5 stars5.00 out of 5 stars - January 18, 2012
Subject: amazing show
agreed john shreds the hell outta this jack straw, i was like 20 feet away from phil on the right side it was crazy....the breakdown part in pride of cucamonga was nice and that was a crazy drum solo into king solomon's from furthur's secret weapon joe russo

Reviewer: furthur123 - 4.00 out of 5 stars4.00 out of 5 stars4.00 out of 5 stars4.00 out of 5 stars - November 14, 2011
Subject: 6th show
Was my 6th Furthur show and 14th "Dead" related show. Was so looking forward to it, as the whole week leading up sucked ass with the huge late Oct snow storm knocking out most of the city's power. Saw some cool people there, and had a nice vibe, tho the horse cops kicking everyone off the street kinda ruined the scene afterward. really dug the Playin opener and then the reprise at the end. That was something special. Plus seeing John and Phil switch sides was unexpected.

Reviewer: rickr - 4.00 out of 5 stars4.00 out of 5 stars4.00 out of 5 stars4.00 out of 5 stars - November 8, 2011
Subject: Solid Tour Opener
This band has matured nicely! I've seen this incarnation several times now, and this night in Manchestah was the most comfortable I have seen them. It's evident in the consistently good playing, specifically the smooth transitions - an area they have struggled.

Furthur has yet to blow me away with an entire first set. This one, like most, builds nicely with some tasteful playing, meanders a bit, but finishes strong with an energized Bertha and strong Good Lovin' complete with a creative little bonus jam in the middle.

Set two takes off with the first big note of Shakedown. This is up-tempo and fun with lots of creative interplay. I remember watching Phil really get down here. The Jack Straw is fantastic. Give a listen nice and loud if you are a fan of the song. John pushes it again and again and the band responds. Two of three big time Phil bombs. From that point on, their playing is smooth, at times delicate, at times rocking and just plain interesting to hear. The only thing I was really happy with was the Supplication jam. It never really went anywhere. Would have been so cool if they laid into it and finished it. Oh well. Last thing I'll say is that the vocal mix sounded pristine in the building that night. Doesn't come across quite as clean on tape. Still, a fun night with lots of great music and some real highlights.
Tapers RULE - thank you so much for capturing and sharing the music so quickly!

Reviewer: Jeff Knorek from Nova Scotia - 5.00 out of 5 stars5.00 out of 5 stars5.00 out of 5 stars5.00 out of 5 stars5.00 out of 5 stars - November 6, 2011
Subject: Ball-Crushing Jack Straw
...Phil Bombs all over Jack Straw and Bertha...the official CD doesn't do them justice. Thank you for recording and uploading this Dude.

Reviewer: ILoveJerryGarcia - 5.00 out of 5 stars5.00 out of 5 stars5.00 out of 5 stars5.00 out of 5 stars5.00 out of 5 stars - November 6, 2011
Subject: Whew!
Thanks, Z-Man, for postin' this show. This was awesome. Hottest Furthur show I've ever seen.